HD-AREA wünscht Euch eine besinnliche Weihnachtszeit ;)

DNS SERVER AENDERNum der staatlichen Zensur zu umgehen. Sollten wir von eurem Provider geseprrt werden, nutzt den TOR BROWSER oder ändert euren DNS SERVER.

Filmwünsche können bei uns im Forum abgegeben werden

Wir Speichern Nicht




 
 
 
Top Releases
Brotherhood.of.Blades.2.2017...
Brotherhood.of.Blades.2.2017...
Brotherhood.of.Blades.2.2017...
Kill.Bill.The.Whole.Bloody.A...
Kill.Bill.The.Whole.Bloody.A...
Meine.schoene.innere.Sonne.2...
Meine.schoene.innere.Sonne.2...
Meine.schoene.innere.Sonne.2...
Mountain.2017.DOKU.DUAL.COMP...
Eho.Echo.2016.German.AC3.108...

Cinedubs
Aquaman.TS.LD.German.DL.720p...
Eho.Echo.German.720p.WEBRip....
Eho.Echo.German.1080p.WEBRip...
Bad.Times.at.the.El.Royale.2...
Bad.Spies.2018.German.DL.AC3...
Aquaman.2018.GERMAN.AC3.MD.7...
Bad.Spies.German.DL.AC3.Dubb...
Bad.Spies.German.DL.AC3.Dubb...
Bad.Times.at.the.El.Royale.G...
Bad.Times.at.the.El.Royale.G...

Neuerscheinungen 2017-18
Der.Koenig.und.ich.1956.GERM...
Ben.1972.DUAL.COMPLETE.BLURA...
In.Love.and.War.1996.German....
Der.Teufelsschrei.Evilspeak....
Der.Teufelsschrei.THEATRICAL...
When.Angels.Sleep.2018.Germa...
Hudsucker.Der.grosse.Sprung....
Assault.Anschlag.bei.Nacht.A...
Subconscious.Cruelty.2000.Ge...
How.It.Ends.2018.German.AC3D...

XXX
The.Many.Shades.of.Juliette....
SpyFam.18.12.17.Elsa.Jean.XX...
RodneyMoore.18.12.12.Claire....
RodneyMoore.18.12.13.Aleah.P...
RodneyMoore.18.09.13.Alexa.G...
StrandedTeens.18.12.18.Vienn...
ThaiGirlsWild.18.12.03.Panda...
RodneyMoore.18.09.11.Lynn.Pl...
TeachMeFisting.18.12.17.Lady...
SapphicErotica.18.12.17.Lady...
Stunning18.18.12.17.Juliet.W...
RodneyMoore.18.09.27.Klaudia...
SweetSinner.18.12.18.India.S...
RKPrime.18.12.17.Bonnie.Rott...
PornMegaLoad.18.12.15.Korina...
ShockChallenge.2018.12.15.Mi...
PornMegaLoad.18.12.17.Samant...
ReadyOrNotHereICum.18.12.18....
Nubiles.18.12.16.Laura.Angel...
RealGirlsGoneBad.18.12.15.Pa...

3D
Limbradur.und.die.Magie.der....
Kaluoka.Hina.Das.Zauberriff....
Limbradur.und.die.Magie.der....
Smallfoot.3D.2018.COMPLETE.B...
Smallfoot.Ein.eisigartiges.A...
Skyscraper.3D.2018.German.DL...
Meg.3D.2018.MULTi.COMPLETE.B...
Meg.3D.2018.German.DL.1080p....
Gans.im.Glueck.3D.2018.MULTi...
The.Art.of.Flight.3D.2011.Ge...
The.End.Of.The.World.3D.2010...
The.First.Avenger.Civil.War....
Die.Unglaublichen.2.2018.3D....
Skyscraper.3D.2018.MULTi.COM...
Ant-Man.And.The.Wasp.3D.2018...

Old_Stuff
Akte.X.S05.German.DTS.DL.108...
Akte.X.S04.German.DTS.DL.108...
Akte.X.S03.German.DTS.DL.108...
Dunkirk.1958.COMPLETE.BLURAY...
Das.Wunder.von.Manhattan.199...
The.Amazing.Spiderman.2.Rise...
Rise.of.the.Predator.2014.Ge...
Detective.Dee.und.das.Geheim...
Detective.Dee.Und.Der.Fluch....
Ghost.Rider.Spirit.of.Vengea...
Species.IV.Das.Erwachen.2007...
Species.IV.Das.Erwachen.2007...
Hotel.Transsilvanien.2012.Ge...
The.Dead.2010.German.DL.1080...
The.Dead.2.India.2013.German...

Filme
Zwei.tolle.Kaefer.raeumen.au...
Zwei.tolle.Kaefer.raeumen.au...
Der.Koenig.und.ich.1956.GERM...
Die.Maedchen.von.Rochefort.1...
Frau.zu.verschenken.1978.GER...
Freddy.und.das.Lied.der.Prae...
Oliver.Twist.1948.GERMAN.FS....
Stunksitzung.Doener.for.One....
Zwei.Weihnachtshunde.2005.GE...
Dornroeschen.2009.GERMAN.720...
Der.Weihnachtshund.2004.GERM...
Erdrutsch.Wenn.die.Welt.vers...
Erdrutsch.Wenn.die.Welt.vers...
Jetzt.bringen.wir.unsere.Mae...
Ring.2.2005.German.1080p.HDT...
Ring.2.2005.German.720p.HDTV...
Spy.Kids.2.Die.Rueckkehr.der...
Spy.Kids.2.Die.Rueckkehr.der...
Wenn.der.Mond.auf.die.Erde.s...
Wenn.der.Mond.auf.die.Erde.s...
Young.Guns.II.1990.GERMAN.AC...
Zeichen.des.Boesen.Die.Runen...
Scary.Movie.2000.German.DL.1...
Schaendung.2014.German.1080p...

 
 
Der.Weihnachtshund.2004.GERMAN.720p.HDTV.x264-DUNGHiLL

Jahr: 2004
Genre: Komödie
Sprache: Deutsch AC3
Laufzeit: 1h 28mn
Bitrate: 3 911 Kbps
Format: MKV
Größe: 2.41 GiB
Release:

Beschreibung:
Um zu verhindern, Weihnachten mit der Familie zu feiern, muss Katrin (Nadeshda Brennicke) möglichst schnell einen Hund auftreiben. Denn Papa hat eine Hunde-Allergie und Weihnachten und Familie kann sie eh nicht ausstehen....


Complete name                            : dung-der_weihnachtshund_2004_720p.mkv
Format                                   : Matroska
Format version                           : Version 4 / Version 2
File size                                : 2.41 GiB
Duration                                 : 1h 28mn
Overall bit rate                         : 3 911 Kbps
Encoded date                             : UTC 2018-12-30T16:10:16Z
Writing application                      : HandBrake 1.1.2 2018090500
Writing library                          : Lavf57.7.2

Video
ID                                       : 1
Format                                   : AVC
Format/Info                              : Advanced Video Codec
Format profile                           : High@L4.1
Format settings, CABAC                   : Yes
Format settings, ReFrames                : 5 frames
Codec ID                                 : V_MPEG4/ISO/AVC
Duration                                 : 1h 28mn
Bit rate                                 : 3 449 Kbps
Width                                    : 1 280 pixels
Height                                   : 710 pixels
Display aspect ratio                     : 16:9
Frame rate mode                          : Constant
Frame rate                               : 25.000 fps
Color space                              : YUV
Chroma subsampling                       : 4:2:0
Bit depth                                : 8 bits
Scan type                                : Progressive
Bits/(Pixel*Frame)                       : 0.152
Stream size                              : 2.12 GiB (88%)
Writing library                          : x264 core 155 r2901 7d0ff22
Encoding settings                        : cabac=1 / ref=5 / deblock=1:-3:-3 / analyse=0x3:0x113 / me=umh / subme=7 / psy=1 / psy_rd=1.00:0.00 / mixed_ref=1 / me_range=16 / chroma_me=1 / trellis=1 / 8x8dct=1 / cqm=0 / deadzone=21,11 / fast_pskip=1 / chroma_qp_offset=-2 / threads=6 / lookahead_threads=1 / sliced_threads=0 / nr=0 / decimate=1 / interlaced=0 / bluray_compat=0 / constrained_intra=0 / bframes=3 / b_pyramid=2 / b_adapt=2 / b_bias=0 / direct=3 / weightb=1 / open_gop=0 / weightp=2 / keyint=250 / keyint_min=25 / scenecut=40 / intra_refresh=0 / rc_lookahead=50 / rc=crf / mbtree=1 / crf=19.0 / qcomp=0.60 / qpmin=0 / qpmax=69 / qpstep=4 / vbv_maxrate=62500 / vbv_bufsize=78125 / crf_max=0.0 / nal_hrd=none / filler=0 / ip_ratio=1.40 / aq=1:1.00
Default                                  : Yes
Forced                                   : No
Color primaries                          : BT.709
Transfer characteristics                 : BT.709
Matrix coefficients                      : BT.709

Audio
ID                                       : 2
Format                                   : AC-3
Format/Info                              : Audio Coding 3
Mode extension                           : CM (complete main)
Format settings, Endianness              : Big
Codec ID                                 : A_AC3
Duration                                 : 1h 28mn
Bit rate mode                            : Constant
Bit rate                                 : 384 Kbps
Channel(s)                               : 2 channels
Channel positions                        : Front: L R
Sampling rate                            : 48.0 KHz
Bit depth                                : 16 bits
Compression mode                         : Lossy
Stream size                              : 242 MiB (10%)
Title                                    : Stereo
Language                                 : German
Default                                  : Yes
Forced                                   : No


Download:
Share Online Share OnlineShare OnlineShare Online
 

Kommentare